Ronan Corkey | Samuel West | Fantasía

Prasthanam Telugu 2010 X264 Ac3 Subs Icf

  • Download 5x Faster
  • Download torrent
  • Direct Download
  • Rate this torrent +  |  -
Prasthanam Telugu 2010 X264 Ac3 Subs Icf

Anonymous and Free Direct Download


Torrent info

Name:Prasthanam Telugu 2010 X264 Ac3 Subs Icf

Total Size: 1.66 GB

Magnet: Magnet Link

Seeds: 0

Leechers: 0

Stream: Watch Online @ Movie4u

Last Updated: 2017-10-15 16:14:23 (Update Now)

Torrent added: 2010-12-08 20:16:17



VPN For Torrents

Torrent Files List


 

tracker

leech seeds
 

Torrent description

General

Format : Matroska
File size : 1.66 GiB
Duration : 2h 53mn
Overall bit rate : 1 365 Kbps
Encoded date : UTC 2010-12-09 00:22:47
Writing library : libebml v1.0.0 + libmatroska v1.0.0

Encoded By RajMahal @ Team ICF

Video

ID : 1
Format : AVC
Format/Info : Advanced Video Codec
Format profile : [email protected]
Format settings, CABAC : Yes
Format settings, ReFrames : 3 frames
Muxing mode : Header stripping
Codec ID : V_MPEG4/ISO/AVC
Duration : 2h 53mn
Bit rate mode : Variable
Bit rate : 1 177 Kbps
Maximum bit rate : 5 000 Kbps
Width : 928 pixels
Height : 400 pixels
Display aspect ratio : 2.35:1
Frame rate : 23.976 fps
Color space : YUV
Chroma subsampling : 4:2:0
Bit depth : 8 bits
Scan type : Progressive
Bits/(Pixel*Frame) : 0.132
Stream size : 1.43 GiB (86%)

Audio

ID : 2
Format : AC-3
Format/Info : Audio Coding 3
Mode extension : CM (complete main)
Muxing mode : Header stripping
Codec ID : A_AC3
Duration : 2h 53mn
Bit rate mode : Constant
Bit rate : 160 Kbps
Channel(s) : 6 channels
Channel positions : Front: L C R, Side: L R, LFE
Sampling rate : 48.0 KHz
Bit depth : 16 bits
Compression mode : Lossy
Video delay : 2ms
Stream size : 199 MiB (12%)

related torrents

Torrent name

health leech seeds Size
 


comments (0)

Main Menu